Logan Marshall-... | 1366x768 | Watch Movie
[Login] or [Signup]
Login
Username:
Password:
[Signup]
[Recover Account]


Poll


You must be logged in to view polls



Torrent Details For "Imposters.S01E10.HDTV.x264-HEFF"

Imposters.S01E10.HDTV.x264-HEFF

Download this torrent | Magnet Download
Health:
Seeds: 0
Leechers: 0
Completed:
Last Checked: 29-09-2018 23:15:34
External Torrent
Update Stats
Download Magnet


Poster
No poster


iMDB
Imdb Picture Title: Imposters
Year: 2017
Runtime: 41 minutes
Votes: 1778
Rating: 7.7/10
Language: English, English
Country: USA
All Genres: Comedy, Drama, Mystery
Plot Outline: A dark comedy that focuses on a female con artist who marries people and then disappears with their money.
Director: Adam Brooks
Wayne Yip
Paul Adelstein
Marta Cunningham
Writing By: Paul Adelstein,Adam Brooks,Emily Cook,Kathy Greenberg,Andy Parker,Neena Beber,Sheila R. Lawrence,
Produced By: Cathy M. Frank,Patty Long,Paul Adelstein,Adam Brooks,Andy Parker,Neena Beber,Warren Carr,Emily Cook,Kathy Greenberg,Sheila R. Lawrence,John G. Lenic,Gregg Tilson,
Music: Talia Osteen Dov Rosenblatt
Plot:

Con artist Maddie is as beautiful as she is dangerous. Over the years, she has left a trail of unwitting victims who become tormented upon realizing that they have been used and robbed of everything -- including their hearts. Her latest assignment threatens to be derailed, though, when she meets Patrick, a potential love interest. Further complicating Maddie's work are three former targets -- Ezra, Richard and Jules -- who realize they have been scammed by the same woman and team up to track her down. When the victims choose to embark on the quest, they don't realize that they must face their own truths and find new versions of themselves along the way.

- Written by Christopher Wilson

A series following Maddie, a persona shifting con-artist who is as beautiful as she is dangerous, leaving her unwitting victims tormented when they realize they have been used and robbed of everything - including their hearts. But things get complicated when her former targets, Ezra, Richard and Jules team up to track her down. While pursuing her newest mark, Maddie meets a potential love interest, Patrick, which threatens to derail her assignment, much to the chagrin of her mysterious boss, The Doctor. Meanwhile, her dejected past lovers manage to take control of their new realities, not realizing that in their quest to confront her, they'll have to face their own truths and find new versions of themselves along the way.

A dark comedy that focuses on a female con artist who marries people and then disappears with their money.

- Written by Rob Penner
Cast:
Inbar Lavi as Maddie
Rob Heaps as Ezra Bloom
Parker Young as Richard
Marianne Rendón as Jules
Stephen Bishop as Patrick
Brian Benben as Max
Chastity Dotson as Gina
Denise Dowse as Auntie Colleen
Katherine LaNasa as Sally
Aaron Douglas as Gary Heller


Watch-Free-HD     Download

Details
Name:Imposters.S01E10.HDTV.x264-HEFF
Description:


IMDb:  http://www.imdb.com/title/tt5212822/
Donate Us: bitcoin:17HBPWiAcvh9GFcZPg1ebvBXbnJDE3oxut

File Info

General
Complete name                            : Imposters.S01E10.HDTV.x264-HEFF.mp4
Format                                   : MPEG-4
Format profile                           : Base Media
Codec ID                                 : isom (isom/iso2/avc1/mp41)
File size                                : 850 MiB
Duration                                 : 42 min 9 s
Overall bit rate                         : 2 820 kb/s

Video
ID                                       : 1
Format                                   : AVC
Format/Info                              : Advanced Video Codec
Format profile                           : [email protected]
Format settings, CABAC                   : Yes
Format settings, ReFrames                : 4 frames
Codec ID                                 : avc1
Codec ID/Info                            : Advanced Video Coding
Duration                                 : 42 min 9 s
Bit rate                                 : 2 700 kb/s
Width                                    : 720 pixels
Height                                   : 406 pixels
Display aspect ratio                     : 16:9
Frame rate mode                          : Constant
Frame rate                               : 23.976 (23976/1000) FPS
Chroma subsampling                       : 4:2:0
Bit depth                                : 8 bits
Scan type                                : Progressive
Bits/(Pixel*Frame)                       : 0.385
Stream size                              : 810 MiB (95%)
Writing library                          : x264 core 148

Audio
ID                                       : 2
Format                                   : AAC
Format/Info                              : Advanced Audio Codec
Format profile                           : LC
Codec ID                                 : 40
Duration                                 : 42 min 9 s
Duration_LastFrame                       : -11 ms
Bit rate mode                            : Constant
Bit rate                                 : 129 kb/s
Channel(s)                               : 2 channels
Channel(s)_Original                      : 6 channels
Channel positions                        : Front: L C R, Side: L R, LFE
Sampling rate                            : 48.0 kHz
Frame rate                               : 46.875 FPS (1024 spf)
Compression mode                         : Lossy
Stream size                              : 38.7 MiB (5%)

Thumbnails

Category:TV > WEB-HD
Lang:English  English
Total Size:850.18 MB
Info Hash:7394eb7e6abe5692f566b5a999a66585e8e0875c
Added By:pheonix83
Date Added:13-04-2017 08:04:34
Views:337
Hits:71

Download Torrent

Ratings:Not Yet Rated (Log in to rate it)


Tracker:
udp://tracker.opentrackr.org:1337/announce


File List: 


Comments

<< Previous      Next >>
1 - 1

[Report] Posted: 05-06-2017 at 18:42:57
SRZK



Uploaded: 0.00 B
Downloaded: 0.00 B
Ratio: ---

Thanks :love

1 - 1
<< Previous      Next >>


Powered by 10 Hamsters v2-svn -|- Page Generated In 0.078616 secs.
-|- RSS FEED
Theme By: Nikkbu